Depeche Mode Stripped Samples

In their own Neue Deutsche Härte style, the German provocative rockers Rammstein served up. Mp3 Depeche Mode - Peace (Remixes) listen to all release. In their own Neue Deutsche Härte style, the German provocative rockers Rammstein served up. Read about Stripped by Depeche Mode and see the artwork, lyrics and similar artists. Ciekawostki o Depeche Mode. It was released as the lead single from their fifth studio album, Black Celebration (1986), on 10 February 1986, through Mute Records. I listened to the CD for about 3 minutes on ill-fitting headphones in the middle of a noisy record fair, so my impressions were vague at best. As an event, Depeche Mode's huge (attendance around 60,000) Los Angeles Rose Bowl concert in 1988 remains legendary; no single artist show had totally sold out the venue since eight years beforehand, while the film documentary done by Dylan-filmer D. Flere av albumene deres har de siste tiårene gått til topps på albumlistene i bl. Depeche mode 101 how did they come up with does sounds?! #2246966 11/20 nothing DM used was a stock factory sample (or at least any such stock sounds were in the. 1 CD from Depeche Mode. Also they had 7 number one albums in the German Album Charts from 1993-2017. When Vince Clarke initially came to Blackwing to record with Yazoo he found that the studio was fully booked; Depeche Mode were recording their new album. General Commenti think its about a gothic party. depeche mode - Heaven (2013) Depeche Mode - Stripped (Extended Dub Mix) [08:08] 10. Depeche Mode – Here Is The House. Peak level 88. Our new desktop experience was built to be your music destination. "Black Day" is an acoustic, alternate version of "Black Celebration" sung by Martin Gore, and is co-written by him, Alan Wilder, and producer Daniel Miller - the only Depeche Mode song where Miller receives a writing credit. Each bank contains an array of sounds allocated across the keyboard for the live performances. There was another version of Stripped available, the Highland Mix, remixed by Flood. Commercially, Black Celebration wasn't as much of a success than Some Great Reward, as despite being their best charted record ever in Europe and the UK, it failed to match the previous records success in the US. Several American 7"'s and 12"'s are included, mostly because they are items of interest to collectors (either because they contain new versions, or a large collection of versions, making them more value for money). Depeche Mode were pretty huge in the UK and Europe with a decent following in other parts of the globe and even Amercia was starting to listen. The GD Music Archive General Discussions. Depeche Mode are an English synthpop band, founded in 1980, originally from the town of Basildon, Essex, United Kingdom. They have two children. Welcome to the Audio area of the Archives. Depeche Mode - Violator 24 bit Vinyl Rip. Following a warm-up show in Nice , France on 4 May 2013, the tour kicked off in Tel Aviv , Israel, and continued through Europe until late July. Its greatest charm comes in its ability to be both depressing yet uplifting. It was also covered by G. Official site containing news, a discography, lyrics, tour information, pictures, audio/video files, and merchandise. Depeche / 2018, Lossless, WEB Flac, KaRaMusic. Watch Depeche Mode - 101 Remastered (2019) (320) Free Movies Online, Like 123Movies, Fmovies, Putlockers, Popcorntime, Netflix or Direct Download Depeche Mode - 101 Remastered (2019) (320) via Magnet Link. He is known for his work on The Hole (2001), The Monkey's Mask (2000) and Recoil: Allelujah (2008). Depechemode. I've been on somewhat of a quest (it feels like that!) to obtain Depeche Mode samples, as I see them as being the utmost Holy Grail of all things Depeche - besides meeting the band. Depeche Mode Stripped Instrumental Devotional / Play. "Breathing in Fumes" was a new song using samples from "Stripped", mixed by the band and Thomas Stiehler. Stripped ist die 15. Toujours présent sur la scène internationale, il s'agit d'un des groupes les plus influents et les plus populaires nés au cours de l'ère new wave au sein du courant electro-pop. Depeche Mode - Stripped lyrics Come with me Into the trees We'll lay on the grass And let the hours pass Take my hand Come back to the land Let's get away Just for one day. The Delta Machine Tour was a worldwide concert tour by English electronic music band Depeche Mode in support of the group's 13th studio album, Delta Machine, released 22 March 2013. On 16 and 17 December, everyone's favourite electronic pop pioneers, Depeche Mode, checked into the enormous O2 Arena for the British stint of their massive Tour Of the Universe. Get the Depeche Mode Setlist of the concert at Deutschlandhalle, Berlin, Germany on November 9, 1987 from the Music For The Masses Tour and other Depeche Mode Setlists for free on setlist. depeche mode black celebration prague 04 09 2001 mp3, Download or listen depeche mode black celebration prague 04 09 2001 song for free, depeche mode black celebration prague 04 09 2001. 3by Depeche Mode on Slacker Radio, where you can also create personalized internet radio stations based on your favorite albums, artists and songs. Feel free to post any comments about this torrent, including links to Subtitle, samples, screenshots, or any other relevant information. , Angie Soft & Kauderer, Duncan Sheik, Bebo Best & Evelins feat. Demo songs: Black Celebration Angel Stripped Strangelove Behind the Wheel Shake the Disease Everything Counts People are People Just can't get. Stripped Songtext von Depeche Mode mit Lyrics, deutscher Übersetzung, Musik-Videos und Liedtexten kostenlos auf Songtexte. Depeche Mode artist pic. According to tjier biography 'Stripped', most drums on 'Speak and Spell' came from an ARP 2600. Analysis of sample sources and how they are manipulated is a popular topic of discussion among fans of the group. Select the Mode - A Depeche Mode Fan Blog Stripped (101) Enjoy the Silence (Devotional) This updated version contains a sample from the KellerTechnik remix. Depeche Mode 07 — Depeche Mode — Stripped [dts]. depeche mode music catalog All releases in the UK are through MUTE records. Depeche Mode – Essentials (2018)links hosted on Uploaded, Rapidgator, Nitroflare, Mega, Openload, Free, Direct Stream is also available Via putlocker or torrents. Find affordably priced Vtg Depeche and visit today for the special offers. En 2009, le groupe anglais de power pop Magic Eight Ball, a sorti sa propre version de Stripped en édition CD limitée et en single disponible sur iTunes. Depeche Mode is an outstanding band who constantly disappears and reappears. This item was purchased from the Alan Wilder Collected auction. 8mhz Depeche Mode 1981 - 2005 [SACD DSF]. Synthie-Pop-Gruppe. "Get The Balance Right" is done by an artist who has never listened to Depeche Mode before, but was just given the lyrics to make a completely new song out of it you really have to listen to the result, it's pretty cool!. Clarke left Depeche Mode in late 1981, shortly after the release of their debut album Speak and Spell. pl • itnfinal. Depeche Mode (/ d ə ˌ p ɛ ʃ-, d iː-, d ɪ-/) are an English electronic music band formed in Basildon, Essex, in 1980. Robbie Williams – Under The Radar (Vol. wav Wykorzystujemy pliki cookies i podobne technologie w celu usprawnienia korzystania z serwisu Chomikuj. Depeche Mode 101 The album 101 contains music performed live at the Pasadena Rose Bowl on June The album serves as a documentary chronicling the final leg of Depeche Mode's Available in: Vinyl LP. Since 2000, the Emulator II has risen in popularity due to the '80s pop culture resurgence and new artists wishing to revive the '80s Emulator-based sound. wav" WAVE TRACK 07 AUDIO TITLE "Stripped" PERFORMER "Depeche Mode" INDEX 01 00:00:00 FILE "08. On Thursday night, Depeche Mode proved once again why they are the reigning kings of concert tours. Alan Wilder joined the band soon after, and with a couple of records, new songwriter Martin Gore continued to. Filename H:\Temp\08. "I listened a lot to Depeche Mode—a lot—in '85, and started playing keyboards because of it," says Yttling. Is a cover of 1 song. You would think by this time phoning it in would be the default mode for the band, but Spirit is just as inspired, if not more so than anything they have ever done. Todas las últimas noticias de @DepecheMode. Its greatest charm comes in its ability to be both depressing yet uplifting. Next-level percussive programming and earth-shaking sub bass will make this a nice option for steamrolling a peak-time crowd at 140 BPM. 1269 osób lubi to · 1 osoba mówi o tym. Depeche Mode have had 49 songs in the UK Singles Chart and thirteen top 10 albums in the UK charts, two of which debuted at No. Sorti en mars 87, le cinquième volet des aventures de Depeche Mode a la couleur du digital. 9 % Test CRC 9BBB2C4B Copy CRC 9BBB2C4B Accurately ripped (confidence 20) [7E0C4179] Copy OK. EUR 119,99 DEPECHE MODE Stripped But not tonight 7" Japan Promo Sample Single Vinyl P-2097. * Items below may differ depending on the release. mp3, depeche mode black celebration prague 04 09 2001 Free MP3 Download. A cursory comparison of those two artists’ most immediately contemporary work would indicate that Reznor was. En 2009, le groupe anglais de power pop Magic Eight Ball, a sorti sa propre version de Stripped en édition CD limitée et en single disponible sur iTunes. Bis heute denkt Labelboss Daniel Miller gerne an den Tag zurück, an dem Depeche Mode, die er 1980. Download depeche mode 101 DVDRIP TRUEFRENCH sur uptobox, 1Fichier, uploaded. Select a single by clicking on a single cover below. wav Wykorzystujemy pliki cookies i podobne technologie w celu usprawnienia korzystania z serwisu Chomikuj. Depeche Mode samples. Posts Tagged ‘depeche mode’. Depeche Mode. DEPECHE MODE, who are at present completing work on their new album in Berlin, sre releasing their remarkable new single on Mute Records on Monday, 10th February 1986. Porträt laut. Depeche Mode no eran la única banda electrónica que lo estaba pasando mal para unir música e imagen; Andy McCuskey, de los OMD, que se asemejaba más a un joven profesor de geografía que a una. May 2009 EAC extraction logfile from 5. Which is a very strange thing to say about an album called, however much in jest, Music For The Masses. It's 2CD-R set. This item was purchased from the Alan Wilder Collected auction. pdf), Text File (. Nowadays they are really active again. In nearly all cases, the samples were sourced from the original multitrack. July 2015, 7:23 Depeche Mode / Live I & Live II ('Devotional' The Town House CDR acetate 1993. El videoclip fou inclòs en la col·lecció The Videos 86>98 (1998) i posteriorment en The Best of Depeche Mode Volume 1 (2006). Thank U – Tribute To Depeche Mode features 14 of the best songs, all of them performed by Hungarian bands. Informacje o Depeche Mode w formie krótkich anegdotek i ciekawostek. This is also just another proprietary sample player. Auf dem großartigen Album überraschen die Synthipopper mit innovativen Samples und rohen Sounds. Ciekawostki o Depeche Mode. For the Masses is a 1998 tribute album to Depeche Mode, specifically the works of Martin Gore. Depeche Mode (/ d ə ˌ p ɛ ʃ-, d iː-, d ɪ-/) are an English electronic music band formed in Basildon, Essex, in 1980. July 2015, 7:23 Depeche Mode / Live I & Live II ('Devotional' The Town House CDR acetate 1993. Depeche Mode werden in diesem Jahr 40 Jahre alt. Find affordably priced Vtg Depeche and visit today for the special offers. He is known for his work on The Hole (2001), The Monkey's Mask (2000) and Recoil: Allelujah (2008). Depeche Mode are an English synthpop band, founded in 1980, originally from the town of Basildon, Essex, United Kingdom. 'Stripped' is a song from the 1986 album Black Celebration by Depeche Mode. On 16 and 17 December, everyone's favourite electronic pop pioneers, Depeche Mode, checked into the enormous O2 Arena for the British stint of their massive Tour Of the Universe. Depeche Mode 07 — Depeche Mode — Stripped [dts]. Personal Jesus: | | | "Personal Jesus" | | | | World Heritage Encyclopedia, the aggregation of the largest online encyclopedias available, and the most definitive. Find album reviews, stream songs, credits and award information for Singles Box, Vol. It Doesn't Matter Two 6. Several American 7"'s and 12"'s are included, mostly because they are items of interest to collectors (either because they contain new versions, or a large collection of versions, making them more value for money). Posts Tagged ‘depeche mode’. any one who pays for samples is a mug i will never buy samples it has to be free. Pre-gap length 0:00:00. Depeche Mode originally released Stripped written by Martin Gore and Depeche Mode released it on the single Stripped in 1986. Vince Clarke is an electronic music pioneer whose analog synths, samples and chilly beats have accounted for some of the most memorable chart-topping hits and toe-tapping dance grooves of the last three decades. "Black Day" is an acoustic, alternate version of "Black Celebration" sung by Martin Gore and co-written by him, Alan Wilder, and producer Daniel Miller—the only Depeche Mode song where Miller receives a writing credit. 3 % Track quality 99. Free Download Depeche Mode Stripped Alan Wilder S Emax Setup Used MP3, Size: 7. 1 min read. This song begins with a quiet synth melody and progresses to become a poetic masterpiece about the beauty of solitude. Stripped down to the bone Let me see you Stripped down to the bone Metropolis Has nothing on this You're breathing in fumes I taste when we kiss Take my hand Come back to the land Where everything's ours For a few hours Let me see you Stripped down to the bone Let me see you Stripped down to the bone Let me hear you Make decisions Without your. If you possess these unlisted Depeche Mode or Recoil sound banks, please reach out to [email protected] Alan Wilder's comments. , Angie Soft & Kauderer, Duncan Sheik, Bebo Best & Evelins feat. Gore geschrieben und als Single sowie auf dem Album Some Great Reward und in den USA auf dem Kompilationsalbum People Are People veröffentlicht. Listen to Samples | Buy Songs included: 1. Mon, 22 Apr 2019. The Delta Machine Tour was a worldwide concert tour by English electronic music band Depeche Mode in support of the group's 13th studio album, Delta Machine, released 22 March 2013. Depeche Mode (/ d ə ˌ p ɛ ʃ-, d iː-, d ɪ-/) are an English electronic music band formed in Basildon, Essex, in 1980. Depeche Mode – Here Is The House. MP3 is a digital audio format without digital rights management (DRM) technology. ” With their fifth studio album, the quartet explores a new sound, earning praise from publications including Rolling Stone, NME and many others. From "Music To The Masses" to "Songs Of Faith And Devotion" we got the best Depeche Mode songs by far. og Storbritannia. Paul Eastman: “Ah yes, there used to be two in case one went down. Catch up with the pioneering synth-pop band who creates innovative & dramatic music for the masses. Depeche Mode ( / d ɨ ˈ p ɛ ʃ /) are an English electronic music band formed in 1980 in Basildon, Essex. Facebook gives people the power to share and makes the world more open and connected. Re: 80's Depeche Mode Sounds Post by beviz » Thu Jul 08, 2010 8:23 pm From what I remember, especially on "Construction Time Again" Depeche Mode was heavily into sampling stuff they found on building sites and such, there's a whole chapter about it in the book "Stripped" by Jonathan Miller. "Stripped" is well known for its innovative use of sampling. While they fix the problems that caused the site to go down, please visit the official Twitter, Facebook and Instagram accounts of Depeche Mode. In their own Neue Deutsche Härte style, the German provocative rockers Rammstein. You can download Depeche Mode - Vinyl Collection: Singles, EPs and Remixes for free on our site Flac Quality Save Audio in 1 Click Wide Choice of Songs and Albums. wav Wykorzystujemy pliki cookies i podobne technologie w celu usprawnienia korzystania z serwisu Chomikuj. Alan Wilder Depeche Mode Samples E-MU EMU Emulator Emax II SoundFont SF2. Additional Notes: This is basically the same as the released Live Version, except for the poor edit that starts off the track (listen to the sample). These are the exact sounds which were programmed and used by Alan during DM’s ‘Devotional’ and ‘Music For The Masses’ tours. All files are General MIDI, XG (Roland Extended MIDImentioned in Filename). Depeche Mode - Black Celebration review: Depeche Mode begins to hone in on its definitive sound creating its an album with several stellar songs that remain as live staples to this day. It took Depeche Mode only four years to assemble their first singles compilation, but 12 to assemble The Singles 86>98. One of those forgotten albums, at least to me. 1269 osób lubi to · 1 osoba mówi o tym. Very rare 2CD set with phonogramme from violation tour. One of the first acts to establish a musical identity based completely around the use of synthesizers, they began their existence as a bouncy dance-pop outfit but gradually developed a darker, more dramatic sound that ultimately positioned them as one of the. A new Sound Package for Alesis Fusion 6/8 inspired by the most famous synth / pop band "Depeche Mode" 64 new programs and samples from the Depeche Mode discography. I must say that years ago when I started collecting variations of depeche mode on CD I was blown away when I first got into the Japanese CD issues. Contains a plethora of anthems to be played alone, at midnight including classics like 'A Question of Lust' and 'Stripped'. Pennebaker's documentary of Depeche Mode's 1988 world tour shows how an effete glam-goth synth-pop band from Essex, England, could ultimately sell out Pasadena, California's Rose Bowl. Midi-Files - depeche-mode-world. IIRC, they sampled a car or bike for Stripped (there's the rhythmic "engine" sound and also the "start up" sound, so I guess if the former is a preset, the latter is their own sample). Following a warm-up show in Nice, France on 4 May 2013, the tour kicked off in Tel Aviv, Israel, and continued through Europe until late July. The group as of now consists of a trio of Dave Gahan (lead vocals and co-songwriting), Martin Gore (keyboards, guitar, co-lead vocals and main songwriting), and Andy Fletcher (keyboards). Comments (0 Comments). Source by elektrolad. U nlike the Strokes, another ostensible nostalgia act playing out waning variations on their past glories, Depeche Mode knows their place. A cookie is a small file which asks permission to be placed onto your computer's hard drive. You can download Depeche Mode - SACD Collection (2003-2007) for free on our site Flac Quality Save Audio in 1 Click Wide Choice of Songs and Albums Enter the website. Source by elektrolad. Single von Depeche Mode und die erste Singleauskopplung aus dem Album Black Celebration. The group as of now consists of a trio of Dave Gahan (lead vocals and co-songwriting), Martin Gore (keyboards, guitar, co-lead vocals and main songwriting), and Andy Fletcher (keyboards). Written by the band's lead songwriter Martin Gore, 'Stripped' has been described as an 'ominous and intriguing pop song'. Retaining their often imaginative sampling and beginning to move away from the "industrial pop" sound that had characterised their previous two LPs, the band introduced an ominous. Listen to Singles Box, Vol. Watch Depeche Mode - 101 Remastered (2019) (320) Free Movies Online, Like 123Movies, Fmovies, Putlockers, Popcorntime, Netflix or Direct Download Depeche Mode - 101 Remastered (2019) (320) via Magnet Link. depeche mode - Heaven (2013) Depeche Mode - Stripped (Extended Dub Mix) [08:08] 10. og Storbritannia. Depeche Mode Spirit 2017 Spotify The idea that in 2017 Depeche Mode would be releasing their 14th studio album seems almost impossible. BLACK CELEBRATION markiert auch gleichzeitig die düsterste Phase von Depeche Mode, die ihren Tribut an den vorherrschenden New Wave zollen und neben THE CURE, ANNE CLARK, OMD, SOFT CELL und NEW ORDER diese Phase der 80er Jahre entscheidend prägen. Read about Stripped by Depeche Mode and see the artwork, lyrics and similar artists. Posts about Depeche Mode written by mmarsuarez. Discover releases, reviews, credits, songs, and more about Depeche Mode - Stripped at Discogs. Black Celebration’s atmospheric soundscapes, replete with unorthodox flourishes and inventive samples (most notably, the mix of motorcycle, car engine and fireworks samples on lead single “Stripped”), are more grandiose and foreboding than any previous Depeche Mode album, to be sure. Things seem to have changed since Depeche Mode were a bunch of Emulators and that famous pair of Revox reel-to-reels running the show. Sombre mais merveilleux, quelques classiques, Question Of Time, Question Of Lust et Stripped, l'émouvante chanson This Is The House, le décor se plante avec Black Celebration, un morceau sombre mais trés envoutant Fly on The Windscreen. Song information for Stripped - Depeche Mode on AllMusic. 7 % Track quality 99. Vince Clarke is an electronic music pioneer whose analog synths, samples and chilly beats have accounted for some of the most memorable chart-topping hits and toe-tapping dance grooves of the last three decades. Bis heute denkt Labelboss Daniel Miller gerne an den Tag zurück, an dem Depeche Mode, die er 1980. Since their debut in 1981, Depeche Mode have had 54 songs in the UK Singles Chart, as well as one US, and two UK number one albums (Songs of Faith and Devotion and Ultra). Depeche Mode - Live @ Touring The Angel Tour on Mexico (05-05-2006) Bienvenido a NIGHTCLUBBER. Stripped (Samples, Devotional Tour) Alanův výprodej nazývaný honosným pojmem aukce, sice zavřel další spolupráci Wildera a DM, ale na druhou stranu umožnil přístup fanoušků k velmi raritním věcem, jako například k mnoha samplům použitých na albech a na turné. The shop will feature synths and effects from Moog, Roland, Dave Smith, and more, all owned and many signed by Gore. Depeche Mode Spirit 2017 Spotify The idea that in 2017 Depeche Mode would be releasing their 14th studio album seems almost impossible. "Breathing in Fumes" was a new song using samples from "Stripped", mixed by the band and Thomas Stiehler. The group consists of founders Dave Gahan (lead vocals), Martin Gore (guitar, keyboards, vocals), and Andy Fletcher (keyboards). Depeche Mode Black Celebration - The 12'' Singles (2019) Number of tracks: 23 Official DR value: DR11 Samplerate: 44100 Hz Channels: 2 Bits per sample: 16 Bitrate: 926 kbps Codec: FLAC Tracks: 01. deft242 23,370 views. Sumate a nuestra comunidad de manera gratuita , para acceder a mayor información, poder publicar mensajes y conocer a otros miembros!. Depeche Mode were among the first to make use of new sampling technology in a traditional pop music format. BLACK CELEBRATION markiert auch gleichzeitig die düsterste Phase von Depeche Mode, die ihren Tribut an den vorherrschenden New Wave zollen und neben THE CURE, ANNE CLARK, OMD, SOFT CELL und NEW ORDER diese Phase der 80er Jahre entscheidend prägen. 90 second samples of Emmett's audience recording were once provided here, but have been taken down to help avoid any legal issues after recommendation by the official site's webmaster. "Stripped" is one of the best songs Depeche Mode ever made! "let me hear you make decisions. In nearly all cases, the samples were sourced from the original multitrack recordings. Alan Wilder, Soundtrack: The Hole. The singles are certainly brilliant. Depeche Mode have had 48 songs in the UK Singles Chart and twelve top 10 albums in the UK charts, two of which debuted at No. Taken with them were eight mega trucks, packed with gear selectively honed from over 20 years of touring experience and a 20-strong support team that's armed and ready to deal with anything the clash of live tour and. Depeche Mode werden in diesem Jahr 40 Jahre alt. Vote for up to 25 songs right here. Depeche Mode Announce MODE Box Set The impact of Depeche Mode's mus ic on their fans, and the musical landscape as a whole, is undeniable. According to their record company, Depeche Mode have sold in excess of 100 million records worldwide. Reverb has announced that Martin Gore of Depeche Mode is launching a shop in a few days, offering various gear for a good cause. While they fix the problems that caused the site to go down, please visit the official Twitter, Facebook and Instagram accounts of Depeche Mode. Download Depeche Mode - Discografia, [Lossless - Flac] New Wave [Tntvillage. It incorporates different samples into its instrumental; most notably, the sound of an idling Porsche engine was taken, altered slightly, then used as a percussive element. They were Essex kids playing electro-pop before anyone else did. Any audience recording of Depeche Mode from this date cannot be shared on this wiki or DIME since it is an alternative recording of officially released content. It was the first single from the album Black Celebration, and the band's thirteenth overall and sixth consecutive single to hit the UK Top 20, peaking at #15. They surged synth-pop to the charts when it didn’t look possible. Wednesday, 2 March 2016. Certain pieces of equipment, such as Alan Wilder's Emulator II were listed as including several Depeche Mode and Recoil sound banks as well as an additional collection of various sample library-sourced sounds. This was while he and band mates Peter Moren and John Erikkson were growing up in Sweden, a well-known bastion of DM fandom. If you possess these unlisted Depeche Mode or Recoil sound banks, please reach out to [email protected] Alan Wilder's comments. I de fleste vestlige land har de opparbeidet seg en stor og trofast tilhørerskare som kan måle seg med den Metallica og U2 har. Maybe someone is interested in. Apperently he needed the money, his career isn't going very well after he left DM in 1995. The deluxe edition release of "The Best Of" contains the CD, as well as a DVD containing a selection of the best Depeche Mode music videos! (click a title for a QuickTime sample) Just Can't Get Enough - NEW to DVD Everything Counts - NEW to DVD People Are People - NEW to DVD Master And Servant - NEW to DVD Shake The Disease - NEW to DVD Stripped. Dressed in Black 11. DMBX3 by Depeche Mode (2018, WEB Flac) - Release Date: 2018 Genre: Synthpop, Electronic Audio Codec: Flac Rip Type: tracks Bitrate: lossless Sample Rate: 16 Bit/44. Comments (0 Comments). Depeche Mode are an English synthpop band, founded in 1980, originally from the town of Basildon, Essex, United Kingdom. Exact Audio Copy V0. The shop will feature synths and effects from Moog, Roland, Dave Smith, and more, all owned and many signed by Gore. Also they had 7 number one albums in the German Album Charts from 1993-2017. According to EMI, Depeche Mode have sold over 100 million albums and singles worldwide, making them the most successful electronic band in music history. Depeche Mode Black Celebration Depeche Mode's most brilliantly dark hour. About File Formats. Patched and performed by Coolfilter. It was released as a lead single on February 10, 1986. Lady Gaga In Space -Free Electronica Soundtracks-You Can Set Me Free (Coo Coo) 2019 Remix feat. From Dreaming Of Me to Heaven. Depeche Mode - Blasphemous Rumours [2006 Digital Remaster] Beschreibung The peak of the band's industrial-gone-mainstream fusion, and still one of the best electronic music albums yet recorded, Some Great Reward still sounds great, with the band's ever-evolving musical and production skills matching even more ambitious songwriting from Martin Gore. Stream Depeche Mode`s Stripped 88-version (Alan Wilder´s Emax setup used) by Modular State from desktop or your mobile device. Stripped by Depeche Mode - discover this song's samples, covers and remixes on WhoSampled. Watch DEPECHE MODE VIDEO COLLECTION Free Movies Online, Like 123Movies, Fmovies, Putlockers, Popcorntime, Netflix or Direct Download DEPECHE MODE VIDEO COLLECTION via Magnet Link. Filename H:\Temp\08. It is also, by far, the rarest one (along with "Behind The Wheel"). Watch Depeche Mode 24 Bit Vinyl Pack Free Movies Online, Like 123Movies, Fmovies, Putlockers, Popcorntime, Netflix or Direct Download Depeche Mode 24 Bit Vinyl Pack via Magnet Link. These are the exact sounds which were programmed and used by Alan during DM’s ‘Devotional’ and ‘Music For The Masses’ tours. Depeche Mode Black Celebration - The 12'' Singles (2019) Number of tracks: 23 Official DR value: DR11 Samplerate: 44100 Hz Channels: 2 Bits per sample: 16 Bitrate: 926 kbps Codec: FLAC Tracks: 01. Electronic Music » Alfa Matrix Re:Covered, Vol. It took Depeche Mode only four years to assemble their first singles compilation, but 12 to assemble The Singles 86>98. People Are People • The Singles 81→85 • Catching Up with Depeche Mode • Greatest Hits • 101 • Songs of Faith and Devotion Live • The Singles 86>98 • Remixes 81 - 04 •The Best Of, Volume 1 • The Complete Depeche Mode • Remixes 2: 81-11. While they fix the problems that caused the site to go down, please visit the official Twitter, Facebook and Instagram accounts of Depeche Mode. "Stripped" is well known for its innovative use of sampling. They are one of the most enduring and successful bands to have emerged during the 80s, and particularly from the new wave/new romantic era. Additional Notes: Within the mix, you will hear samples of classic Depeche Mode tunes, specifically "Master And Servant", "Something To Do", "Halo" and "Fly On The Windscreen". deft242 23,370 views. The single Stripped / But Not Tonight, which was released on 10 February, was the first result of all the cooperation, compromises and tensions. Depeche Mode's Live Setup Revealed - Music Radar. Depeche Mode is one of the longest-lived, most successful and influential bands to have emerged from the New Wave era. sample depeche mode • pliki użytkownika Ibanez97 przechowywane w serwisie Chomikuj. Depeche Mode [dɪˌpɛʃˈmoʊd] ist eine englische Synth-Rock- bzw. -A Question Of Lust 07. Sumate a nuestra comunidad de manera gratuita , para acceder a mayor información, poder publicar mensajes y conocer a otros miembros!. On 16 and 17 December, everyone's favourite electronic pop pioneers, Depeche Mode, checked into the enormous O2 Arena for the British stint of their massive Tour Of the Universe. He was previously married to Jeri. The group consists of founders Dave Gahan (lead vocals), Martin Gore (guitar, keyboards, vocals), and Andy Fletcher (keyboards). Elle a le mérite de mettre en lumière l'imagerie gothique cultivée par Depeche Mode, qui culmine avec "Black Celebration. Catch up with the pioneering synth-pop band who creates innovative & dramatic music for the masses. the guy thats doing all the depech mode stuff on youtube sampled of the 101 album. I listened to the CD for about 3 minutes on ill-fitting headphones in the middle of a noisy record fair, so my impressions were vague at best. The first album of Depeche Mode (chronologically) that I really like. A helyszín Indianapolis. Alan Wilder Depeche Mode Samples E-MU EMU Emulator Emax II SoundFont SF2. Rammstein - Stripped C'est sans doute la reprise la plus controversée. Depeche mode 101 how did they come up with does sounds?! #2246966 11/20 nothing DM used was a stock factory sample (or at least any such stock sounds were in the. A cookie is a small file which asks permission to be placed onto your computer's hard drive. Direct download via magnet link. Feel free to post any comments about this torrent, including links to Subtitle, samples, screenshots, or any other relevant information. ALAN WILDER DEPECHE Mode Samples E-MU EMU Emulator Emax II SoundFont SF2 - EUR 22,49. A cursory comparison of those two artists’ most immediately contemporary work would indicate that Reznor was. Stripped (Album Version) Alternate Mix Nam(es): n/a Production Details: Produced by Depeche Mode, Gareth Jones and Daniel Miller. "Stripped" is one of the best songs Depeche Mode ever made! "let me hear you make decisions. Passend zum runden Jubiläum erschien am Freitag ein Box-Set, das auf 18 CDs einen ausführlichen Überblick über das Gesamtwerk der Band bietet. It was a very different world than today when Depeche Mode first formed and traded in the traditional guitars for synthesizers. Their gothic aesthetic and innovative synth work brought them to worldwide fame in 1990 with the release of Violator , which has made it onto the Rolling Stone: 500. Depeche Mode are an English synthpop band, founded in 1980, originally from the town of Basildon, Essex, United Kingdom. In nearly all cases, the samples were sourced from the original multitrack. Wednesday, 2 March 2016. Thank U – Tribute To Depeche Mode features 14 of the best songs, all of them performed by Hungarian bands. 3 % Track quality 99. Anyone looking for the bangers of yore will be disappointed, but the suggestion that Depeche Mode have lost it is merely a blasphemous rumour. wav" WAVE TRACK 07 AUDIO TITLE "Stripped" PERFORMER "Depeche Mode" INDEX 01 00:00:00 FILE "08. This is about when Bjorn Yttling of Peter Bjorn and John became obsessed with them. The Complete Depeche Mode es una colección del grupo inglés de música electrónica Depeche Mode de la totalidad de su discografía desde 1980 hasta diciembre de 2006, además de su primera disponible exclusivamente como descarga digital, en éste caso a través de la tienda virtual de música del portal iTunes. As an event, Depeche Mode's huge (attendance around 60,000) Los Angeles Rose Bowl concert in 1988 remains legendary; no single artist show had totally sold out the venue since eight years beforehand, while the film documentary done by Dylan-filmer D. The most successful electronic band in the world with over 10 million records sold! Depeche Mode is perfect on a rainy day! Personal Jesus and Precious are my favorites. If you possess these unlisted Depeche Mode or Recoil sound banks, please reach out to [email protected] Alan Wilder's comments. Depeche Mode's single "Stripped," from the 1986 album "Black Celebration," featured innovative samples. 'Stripped' is a song from the 1986 album Black Celebration by Depeche Mode. Our new desktop experience was built to be your music destination. Depeche Mode ‎– X² Stripped Engineer Promo Edition has Japanese Promo Sample sticker on the obi strip, also each CD image side has SAMPLE running around. The single was re-released (in live format) on 13 February 1989 (25 March 1989 in the US) to support the live album 101. Feel free to post any comments about this torrent, including links to Subtitle, samples, screenshots, or any other relevant information. Electronic Music » Alfa Matrix Re:Covered, Vol. explanations:: WinAmp can't play these files at all. From Speak And Spell to Delta Machine. Peak level 74. The wife and I had seen Depeche Mode on their Spirit Tour back in May, they play quite a few songs from this album. They say that the only certainties in life are death and taxes, and hopefully some sex here and there. 9 % Test CRC FF66C732 Copy CRC. Depeche Mode Have Been At The Forefront Of Remix Culture For The Best Part Of Three Decades And This New Compilation Includes Classic Mixes From M83, UNKLE, Trentemøller, François Kervorkian And Dan The Automator, Alongside All-New Mixes From Stargate, Eric Prydz, Karlsson & Winnberg (From Miike Snow) And Röyksopp. Year Of Release: 1990 Genre: Synthpop, Electronic Format: Flac, Tracks Bitrate: lossless Sample Rate: 24/192 Total Size: 1. Depeche Mode - Personal Jesus (04:19) 04. I called this "Depeche Mode era" because there's no band that can match the sounds of these DM albums. Behold Depeche Mode, then: the band who never knew when, or how, to stop. From Basildon boys to globetrotting stadium superstars, clean cut to drug fuelled and back again, they have done it all and survived - quite literally in the case of vocalist Dave Gahan. The single Stripped / But Not Tonight, which was released on 10 February, was the first result of all the cooperation, compromises and tensions. Depeche Mode originally released Stripped written by Martin Gore and Depeche Mode released it on the single Stripped in 1986. The peak of the band's industrial-gone-mainstream fusion, and still one of the best electronic music albums yet recorded, Some Great Reward still sounds great, with the band's ever-evolving musical and production skills matching even more ambitious songwriting from Martin Gore. 9 % Test CRC FF66C732 Copy CRC.